#TITLE:Terminal Strike;
#SUBTITLE:Initiate;
#ARTIST:Kinato;
#TITLETRANSLIT:;
#SUBTITLETRANSLIT:;
#ARTISTTRANSLIT:;
#CREDIT:;
#BANNER:ts-bn.png;
#BACKGROUND:TS-bg.png;
#LYRICSPATH:;
#CDTITLE:cdtitle.png;
#MUSIC:Terminal Strike - Kinato.mp3;
#OFFSET:0.020;
#SAMPLESTART:100.000;
#SAMPLELENGTH:11.980;
#SELECTABLE:YES;
#DISPLAYBPM:165.000;
#BPMS:0.000=165.000,193.000=329.999,199.000=82.500,214.000=165.000,246.000=329.999,259.333=82.499,260.000=165.000,388.000=41.260,389.938=329.999;
#STOPS:;
#BGCHANGES:;
// cache tags:
#FIRSTBEAT:0.000;
#LASTBEAT:390.438;
#SONGFILENAME:Songs/Super Dancer Online/Terminal Strike/Terminal Strike - Kinato.sm;
#HASMUSIC:1;
#HASBANNER:1;
#MUSICLENGTH:152.798;
// end cache tags

//---------------dance-single - ----------------
#NOTES:
     dance-single:
     :
     Hard:
     24:
     1.000,1.000,1.000,1.000,1.000,1151.000,342.000,273.000,0.000,251.000:
0220
0000
0000
0000
0000
0000
0000
1331
0110
1000
0100
0010
0001
0010
0100
1000
,
0100
0010
0001
0010
0100
1000
0100
0010
0001
0010
0100
1000
0100
0010
0001
0010
,
0100
1000
0101
0010
0001
0010
0101
1000
0111
1000
0100
0010
0001
0010
0100
1000
,
0100
0010
0001
0010
0100
1000
0100
0010
0001
0010
0100
1000
0100
0010
0001
0010
,
0101
1000
0111
1000
0001
1000
0111
1000
0101
0010
0100
1000
0100
0010
0001
0010
,
0100
1000
0100
0010
0001
0010
0101
1000
0111
1000
0100
0010
0001
0010
0100
1000
,
0101
1000
0111
1000
0001
1000
0111
1000
0101
0010
0001
0010
0100
1000
0101
0010
,
0101
0010
0100
1000
0101
0010
0001
0010
0101
1000
0100
0010
0101
0010
0101
1000
,
0101
0000
1010
0101
1010
0101
1010
0100
1010
0001
0010
0001
1110
0001
0010
0001
,
1010
0001
0010
0001
1110
0001
0010
0001
1010
0001
0010
0001
1110
0001
0010
0001
,
0110
0001
0010
0001
1110
0001
0010
0001
1010
0001
0010
0001
1110
0001
0010
0001
,
0110
0001
0010
0001
1110
0001
0010
0001
1010
0001
0010
0001
1110
0001
0010
0001
,
1010
0010
1010
0100
0011
1000
0101
0010
0101
1000
0100
0010
1001
0010
0100
1000
,
0101
0010
0001
0010
0101
1000
0100
0010
1001
0010
0100
1000
0101
0010
0001
0010
,
0101
1000
0100
0010
1001
0010
0100
1000
0101
0010
0001
0010
0101
1000
0100
0010
,
1001
0010
0100
1000
0101
0010
0001
0010
0102
0010
2003
0100
0000
0002
0010
0000
,
3203
0000
0000
0000
1301
0000
0000
0000
1111
0000
0001
0100
0010
0001
1000
0100
,
1021
0000
0000
0000
1031
0000
0010
0000
2100
0001
3010
0000
2100
0001
3010
0000
,
2111
0000
3000
0000
1001
0000
0100
0000
0012
1000
0103
0000
0012
1000
0103
0000
,
1112
0000
0003
0000
1001
0000
0100
0000
1020
0100
0031
0000
1020
0100
0031
0000
,
1121
1000
0130
0000
1011
0000
0010
0000
0201
0010
1300
0000
0201
0010
1300
0000
,
1211
0000
0300
0000
1001
0000
0100
0000
2102
0010
3103
0000
2102
0010
3103
0000
,
2112
0000
3003
0000
1111
0000
0010
0000
2012
0100
3013
0000
2012
0100
3013
0000
,
2112
0000
3003
0000
1001
0000
0001
0000
2100
0001
3100
0000
2100
0001
3100
0000
,
2111
0001
3001
0010
1001
0100
0001
0010
0201
0010
1300
0000
2001
0010
3100
0000
,
1211
0000
0300
0000
1001
0000
1000
0000
1020
0100
0031
0000
1002
0100
0013
0000
,
1121
0000
0030
0000
1001
0000
0100
0000
1020
0100
1030
0000
1200
0001
1300
0000
,
1121
0000
0030
0000
1001
0000
0010
0000
0201
0010
0301
0000
0021
1000
0031
0000
,
1211
1000
0310
0000
1001
0000
0100
0000
2102
0010
3103
0000
1220
0001
1330
0000
,
2112
0000
3003
0000
1001
0000
0100
0000
0221
1000
0331
0000
2012
0100
3013
0000
,
1221
0000
0330
0000
1001
0000
0001
0000
2201
0010
3301
0000
1022
0100
1033
0000
,
2211
0000
3300
0000
1001
0010
1000
0000
1000
0100
1000
0100
0001
0010
0001
0010
,
1000
0100
1000
0001
0010
1000
0001
0100
2122
0000
0000
0000
0100
0000
0000
0000
,
0100
0000
0000
0030
0210
0000
0000
0003
0021
0000
0000
0000
0001
0000
0000
0300
,
0102
3000
0000
0000
2100
0000
0000
0030
0210
0000
0000
0000
0010
0000
0000
0003
,
0021
0000
0000
0300
0102
0000
0000
0000
0200
0000
0000
3000
1000
0000
0000
0030
,
2010
0000
0000
0000
0010
0000
0000
0300
0120
0000
0000
0000
0100
0000
0000
0000
,
0100
0000
0000
0003
0201
0000
0000
0300
0102
0000
0000
0000
3100
0000
0000
0000
,
2130
0123
3102
1000
,
1000
0000
1000
0000
1000
0000
1000
0003
,
1030
0100
0010
0001
1000
0100
0010
0001
2100
0001
0010
0001
0110
0001
0010
0001
,
3100
0010
0001
0010
1200
0001
1000
0010
2301
0010
0001
0010
0100
0001
0010
0001
,
3210
0001
0010
0001
2310
0001
0010
0001
3210
0001
0010
0001
0010
1000
0001
0010
,
2301
0010
0100
0010
3201
0010
0001
0010
2301
0010
0100
0010
0100
0001
0100
0001
,
3210
0001
0010
0001
1000
0001
0010
0001
2310
0100
0010
0100
0010
0001
0100
0010
,
0001
0010
0100
0001
3200
0010
1000
0010
2301
0010
0100
0001
0010
0100
0001
0010
,
3201
0010
1000
0010
2301
0010
0100
0001
3210
0001
0010
0001
0010
0001
0010
0001
,
0010
0001
0010
0001
0010
0001
0010
0001
1010
0001
1010
0001
1010
0001
1010
0001
,
1010
0001
1010
0001
1310
0000
0000
0000
0000
0000
0000
0000
1101
0000
0010
0000
,
0001
0000
0000
0000
0010
0000
0000
0000
0100
0000
0000
0000
1000
0000
0000
0000
0100
0000
0000
0000
0010
0000
0000
0000
0001
0010
0100
1000
0100
0010
0001
0010
,
0100
1000
0100
0010
0001
0010
0100
1000
0100
0010
0001
0010
0100
1000
0100
0010
0001
0010
0100
1000
0100
0010
0001
0010
0100
1000
0100
0010
0001
0010
0100
1000
,
0100
0010
0001
0010
0100
1000
0100
0010
0001
0010
0100
1000
0100
0010
0001
0010
1100
0010
0001
0010
0100
0001
1000
0100
0010
0001
0010
0100
1000
0100
0010
0001
,
0010
0100
1000
0100
0010
0001
0010
0100
1000
0100
0010
0001
0010
0100
1000
0100
0010
0001
0010
0100
1000
0100
0010
0001
0010
0100
1000
0100
0010
0001
0010
0100
,
1000
0100
0010
0001
0010
0100
1000
0100
0011
0100
1000
0100
0010
0001
1010
0100
0011
0000
1000
0000
0100
0000
0010
0000
0100
0000
1000
0000
0100
0000
0010
0000
,
0001
0010
0100
1000
0100
0010
0001
0010
0100
1000
0100
0010
0001
0010
0100
1000
,
0100
0010
0001
0010
0101
1000
0100
0010
0101
0010
0100
1000
0100
0010
0001
0010
,
0100
1000
0100
0010
0001
0010
0100
1000
0100
0010
0001
0010
0100
1000
0100
0010
,
1001
0010
0100
1000
0101
0010
1001
0010
0101
1000
0100
0010
0001
0010
0100
1000
,
0100
0010
0001
0010
0100
1000
0101
0010
1001
0010
0100
1000
0100
0010
0001
0010
,
0101
1000
0101
0010
0001
0010
0101
1000
0101
0010
0001
0010
0100
1000
0100
0010
,
1001
0010
0100
1000
0101
0010
0001
0010
0101
1000
0100
0010
0101
0010
0100
1000
,
0101
0010
0001
0010
0100
1000
0100
0010
2002
0000
3223
0000
2332
0000
3223
0000
,
2332
3223
2332
3223
2332
3223
2332
3223
,
2332
3223
2302
3203
2302
3203
2302
3203
,
2302
3203
2302
3003
1101
0000
0000
0000
,
1002
0000
0000
1203
0000
0000
2301
0000
3102
0000
0000
1003
0000
0000
0130
0000
,
2001
0000
0000
3120
0000
0000
2031
0000
3021
0000
0030
0100
0000
0000
0001
0000
,
2100
0000
0000
3012
0000
0000
2103
0000
3102
0000
0003
1000
0000
0000
0100
0000
,
0210
0000
0000
1302
0000
0000
2103
0000
3102
0000
0000
0013
0000
0000
0100
0000
,
2001
0000
0000
3102
0000
0000
1023
0000
0131
0000
0000
1000
0000
0000
0100
0000
,
0012
0000
0000
1023
0000
0000
2130
0000
3201
0000
0300
0010
0000
0000
0100
0000
,
2100
0000
0000
3021
0000
0000
0132
0000
1023
0000
0030
0100
0000
0000
0010
0000
,
2100
0000
0000
3201
0000
0000
0312
0000
1203
0000
0300
0001
0000
0000
0100
0000
,
1020
0000
0000
0231
0000
0000
2310
0000
3120
0000
0030
0001
0000
0000
0010
0000
,
1200
0000
0000
2301
0000
0000
3120
0000
0231
0000
0300
1000
0000
0000
0100
0000
,
1002
0000
0000
0123
0000
0000
0231
0000
1320
0000
0030
0001
0000
0000
0100
0000
,
0002
0000
0000
1023
0000
0000
2130
0000
3201
0000
0301
1000
0100
0001
0100
1000
,
0012
0100
1000
0123
1000
0001
1230
0010
1302
0100
1003
0010
1000
0010
0100
0001
,
2010
0001
0100
3012
1000
0100
2013
0100
3021
1000
0130
0001
0010
0100
1000
0100
,
0012
1000
0100
1023
0100
0001
1230
0010
1302
0010
0103
1000
0100
0010
1000
0100
,
0011
0100
1010
0100
1001
0010
1100
0010
1001
0110
1001
0110
1001
0110
1001
0110
,
1012
0000
0020
0000
0203
0000
2030
0000
0311
0000
3100
0000
0011
1000
0101
0010
,
2101
0000
0200
3000
0020
0000
0302
0000
1130
0000
0013
0000
1100
0001
1010
0100
,
1012
0000
0020
0000
0203
0000
2030
0000
0311
0000
3100
0000
0011
1000
0101
0010
,
2101
0000
0200
3000
0020
0000
0302
0000
1130
0000
0013
0000
1010
0101
1010
1000
,
0112
0000
0020
0000
0203
0000
2030
0000
0311
0000
3100
0000
0011
1000
0101
0010
,
2101
0000
0200
3000
0020
0000
0302
0000
1130
0000
0013
0000
1100
0001
1010
0100
,
1012
0000
0020
0000
0203
0000
2030
0000
0311
0000
3100
0000
0011
1000
0101
0010
,
2101
0000
0200
3000
0020
0000
0302
0000
1130
0000
0103
0010
1100
0010
1010
0010
,
2002
0000
0020
0000
3203
0000
2032
0000
0020
0000
3003
0000
1301
0000
1000
0100
,
2032
0000
0020
0000
3203
0000
2032
0000
0020
0000
3003
0000
1301
0000
1000
0100
,
2032
0000
0020
0000
3203
0000
2032
0000
0020
0000
3003
0000
1301
0000
1000
0100
,
2032
0000
0020
0000
3003
0000
2002
0000
0000
0000
3133
1000
0100
1000
0100
1000
,
2102
0000
0020
0000
3203
0000
2032
0000
0020
0000
3003
0000
1301
0000
1000
0100
,
2032
0000
0020
0000
3203
0000
2032
0000
0020
0000
3003
0000
1301
0000
1000
0100
,
1031
0000
0101
0000
1001
0000
0101
0000
1001
0000
0101
0000
1001
0000
0101
1000
,
0101
0010
1001
0010
0101
0010
1001
0010
0101
0110
1001
0110
0101
0110
1001
0110
,
0202
0000
0000
0000
0000
0000
0000
0000
0000
0000
0000
0000
0000
0000
0000
0000
0000
0000
0000
0000
0000
0000
0000
0000
0000
0000
0000
0000
0000
0000
0000
0000
0000
0000
0000
0000
0000
0000
0000
1313
0000
0000
0000
0000
0000
0000
0000
0000
0000
0000
0000
0000
0000
0000
0000
0000
0000
0000
0000
0000
0000
0000
0000
0000
;

//---------------dance-solo - ----------------
#NOTES:
     dance-solo:
     :
     Hard:
     32:
     1.000,1.000,1.000,1.000,1.000,1105.000,421.000,407.000,0.000,417.000:
000000
000000
000000
000000
000000
000000
010010
000000
001010
010000
001000
000100
000010
000100
001000
010000
,
001000
000010
000100
010000
001000
000010
000100
010000
000010
000100
010000
001000
000100
000010
010000
001000
,
000100
000010
110000
000100
001000
010000
000110
001000
010100
000001
000100
001000
010000
001000
000100
000010
,
010000
001000
000010
010000
001000
000100
000010
010000
001000
000100
010000
001000
000010
001000
000100
010000
,
000110
001000
010100
000010
000100
010000
000101
010000
000110
001000
100000
000001
000010
010000
000010
000100
,
001000
000001
000010
100000
010000
001000
100100
000001
110000
000100
001000
010000
000010
010000
100000
000010
,
010001
001000
100100
000010
000100
001000
110000
000010
100001
000100
000010
000001
001000
000100
010010
000001
,
100100
010000
001000
000001
100100
010000
000010
000100
101000
000001
000100
010000
000110
100000
000110
100000
,
000110
001000
000110
100000
000110
101000
000110
101000
000110
100000
010000
001000
110000
000100
001000
010000
,
000110
000001
000010
000100
011000
000010
000100
001000
110000
000001
000010
000100
000011
100000
010000
001000
,
110000
000001
000010
000100
000011
010000
001000
000100
011000
000010
000100
001000
000110
001000
000100
000010
,
001100
000001
000010
000100
000011
001000
000100
000010
001100
100000
010000
001000
110000
000001
000010
000100
,
000011
000100
001011
010000
100011
010000
001011
000100
000011
100000
010000
001000
110000
000010
000100
001000
,
000110
010000
001000
000100
011000
000010
000100
001000
000011
100000
010000
001000
110000
000100
001000
010000
,
001100
010000
001000
000100
011000
000001
000010
000100
000011
100000
010000
001000
110000
000001
000010
000100
,
000011
010000
001000
000100
011000
000010
000100
001000
010220
001000
200332
010000
000000
000200
001000
000000
,
320303
000000
000200
000000
030002
000000
100300
000000
210113
000000
021000
300000
002100
030000
000210
003000
,
000021
000300
000000
000000
110031
000000
000001
000000
210012
000100
301003
000000
210012
000100
301003
000000
,
210012
000000
300003
000000
011110
000000
000011
000000
220100
000010
330001
000000
220100
000010
330001
000000
,
221110
000000
330000
000000
100001
000000
000001
000000
210200
001000
300301
000000
210200
001000
300301
000000
,
211200
000001
300301
000000
100110
000000
000010
000000
001022
010000
100033
000000
001022
010000
100033
000000
,
101122
000000
000033
000000
101000
000000
000001
000000
210020
000100
301030
000000
210020
000100
301030
000000
,
200020
000000
300030
000000
101011
000000
000100
000000
020210
000001
031300
000000
020210
000001
031300
000000
,
120201
000000
030300
000000
000110
000000
010000
000000
012002
000100
003013
000000
012002
000100
003013
000000
,
012012
010000
003013
000100
000010
000100
100000
010000
001221
010000
100330
000000
022100
000010
033001
000000
,
101220
000000
000330
000000
011001
000000
000010
000000
012200
000010
003301
000000
012200
000010
003301
000000
,
012210
000000
003300
000000
011010
000000
000100
000000
002210
010000
103300
000000
002210
010000
103300
000000
,
012210
000000
003300
000000
011100
000000
000001
000000
002012
000100
013003
000000
002012
000100
013003
000000
,
012012
000100
003103
000000
010110
000000
001000
000000
021020
000100
031030
000000
021020
000100
031030
000000
,
021120
000000
030030
000000
011010
000000
010000
000000
001022
000100
010033
000000
001022
000100
010033
000000
,
101022
000000
000033
000000
010110
000000
000001
000000
221000
000010
330100
000000
221000
000010
330100
000000
,
220011
000000
330000
000000
001101
100000
010000
000010
000001
001000
000100
010000
001000
000100
000010
100001
,
010000
001000
000100
100000
000010
001000
010000
000010
201002
000000
000000
000000
001000
000000
000200
000000
,
010000
000000
020310
000000
301023
000000
100000
000200
,
201000
000000
002301
000000
000102
000000
030100
000200
,
020000
000000
000000
033000
012300
000000
000000
000000
020030
000000
003000
000000
000010
000000
002000
300000
,
100020
100000
000100
000000
003100
000000
000000
000000
100203
000000
000000
000000
100000
000000
002000
030000
,
010030
000000
023010
000000
100302
000000
001000
000020
,
231200
000000
012030
000000
020013
000000
000301
000020
,
303001
000000
031000
000000
100030
000000
010000
000020
,
001000
010000
001000
000000
001030
010000
001000
010000
001002
100000
010000
001000
000100
100000
010020
001000
,
010003
001000
010000
100000
020030
001000
000001
000100
031002
100000
010000
001000
100000
010000
001020
100000
,
020003
001000
000100
001000
230130
001000
010000
000010
320100
000010
000001
001000
000001
000100
100020
000100
,
231000
000001
000100
010000
300132
001000
010000
100000
002013
010000
000100
100000
000010
010000
000021
100000
,
013002
000100
100000
010000
000130
001000
000100
100000
010203
000001
001000
000010
100000
010000
001020
000001
,
100000
010000
001000
010000
000332
001000
000100
100000
010203
001000
100000
000010
001000
010000
000021
001000
,
100302
001000
010000
001000
010233
100000
010000
000010
210301
000000
010001
000000
010001
000000
010021
000000
,
010001
000000
010001
000000
010031
000000
010001
000000
010001
000100
010001
000100
010001
000100
010021
000100
,
010001
000100
010001
000100
310031
000000
000000
000000
000000
000000
000000
000000
110001
000000
000010
000000
,
000100
000000
000000
000000
001000
000000
000000
000000
010000
000000
000000
000000
001000
000000
000000
000000
000100
000000
000000
000000
000010
000000
000000
000000
000100
001000
010000
100000
000010
000100
001000
010000
,
000001
000010
000100
001000
000010
000100
001000
010000
000100
001000
010000
100000
001000
000100
000010
000001
000010
000100
001000
010000
001000
000100
000010
100000
010000
001000
000100
000010
000100
001000
010000
100000
,
001000
000100
000010
000001
010000
001000
000100
000010
010000
001000
000100
000010
010000
001000
000100
000010
010001
001000
000100
000010
000100
001000
010000
100000
000001
000010
000100
001000
000010
000100
001000
010000
,
000010
000100
001000
010000
000100
001000
010000
100000
000100
001000
010000
100000
010000
001000
000100
000010
000001
000100
001000
010000
100000
000010
000100
001000
010000
000010
000100
001000
010000
000010
000100
001000
,
010000
000010
000100
001000
010000
000000
000100
010010
101000
000100
000010
010000
001000
000100
100010
010000
001100
000000
100000
000000
010000
000000
001000
000000
000100
000000
010000
000000
001000
000000
000100
000000
,
000010
001000
000100
000010
000001
010000
001000
000100
000010
100000
010000
001000
000100
010000
001000
000100
,
000010
000001
000010
000100
001001
000100
001000
010000
100001
010000
001000
000100
001000
000100
000010
000001
,
000010
000100
001000
000100
001000
010000
100000
010000
001000
000100
001000
000100
000010
000001
000010
000100
,
001001
000100
001000
010000
100001
010000
001001
000100
001001
000100
000010
000001
000010
000100
001000
000100
,
001000
010000
100000
010000
001000
000100
101000
000100
100010
000001
000010
000100
001000
000100
001000
010000
,
100001
010000
001001
000100
010001
001000
000100
000010
001000
000100
000010
000001
000010
000100
001000
010000
,
000101
001000
010000
100000
000101
001000
010000
100010
000100
001000
010000
000001
100010
000100
001000
010000
,
000101
001000
010000
100000
010000
000100
001000
010000
200022
000000
322233
000000
233322
000000
322233
000000
,
233322
322233
233322
322233
233322
322233
233322
322233
,
233322
322233
230322
320233
230322
320233
230322
320233
,
230322
320233
230322
300033
110111
000000
000000
000000
,
100002
000000
000000
100203
000000
000000
020301
000000
130002
000000
000000
000213
000000
000000
203310
000000
,
301020
000000
000000
020031
000000
000000
030102
000000
001023
000000
000000
012030
000000
000000
003210
000000
,
010302
000000
000000
120003
000000
000000
030210
000000
201300
000000
000000
320001
000000
000000
032100
000000
,
013020
000000
000000
000231
000000
000000
200310
000000
301200
000000
000000
010302
000000
000000
020103
000000
,
030210
000000
000000
010302
000000
000000
002103
000000
013020
000000
000000
200031
000000
000000
301200
000000
,
020301
000000
000000
032010
000000
000000
003210
000000
100302
000000
000000
010023
000000
000000
001230
000000
,
020310
000000
000000
130200
000000
000000
012300
000000
003012
000000
000000
012003
000000
000000
003210
000000
,
210300
000000
000000
300201
000000
000000
002310
000000
123000
000000
000000
030210
000000
000000
010302
010000
,
102003
000000
000000
023001
000000
000000
030102
000000
010203
000000
000000
020301
000000
000000
031002
000000
,
100023
000000
000000
000231
000000
000000
012300
000000
023010
000000
000000
130002
000000
000000
001203
000000
,
020301
000000
000000
130020
000000
000000
002130
000000
213000
000000
000000
320001
000000
000000
030102
000000
,
002013
000000
000000
103020
000000
000000
012030
000000
203100
000010
000000
312000
000100
000100
023100
000000
,
231010
000000
000000
300201
000000
000000
002310
000000
123000
000000
000000
030210
000000
000000
010302
000000
,
102003
000000
000000
023001
000000
000000
030102
000000
010203
000000
000000
020301
000000
000000
031002
000000
,
100023
000000
000000
000231
000000
000000
012300
000000
023010
000100
031000
100000
000001
000010
001000
100000
,
010001
001000
100100
000010
010100
000001
100100
001000
010010
001100
010010
100001
010010
001100
010010
100001
,
020020
000000
002200
000000
230032
000000
023320
000000
301103
000000
030030
010010
101101
000000
000000
000000
,
200002
000000
002200
000000
320023
000000
203302
000000
031130
000000
300003
010010
101101
000000
000000
000000
,
020020
000000
002200
000000
230032
000000
023320
000000
301103
000000
030030
010010
101101
000000
000000
000000
,
200002
000000
002200
000000
320023
000000
203302
000000
031130
000000
300003
010010
101101
010010
001100
000000
,
020020
000000
002200
000000
230032
000000
023320
000000
301103
000000
030030
010010
101101
000000
000000
000000
,
200002
000000
002200
300003
020020
000000
203302
000000
031130
000000
300003
010010
101101
000000
000000
000000
,
020020
000000
002200
000000
230032
000000
023320
000000
301103
000000
030030
010010
101101
000000
000000
000000
,
200002
000000
002200
000000
320023
000000
203302
000000
031130
000000
300003
010010
101101
010010
001100
000000
,
200002
000000
000020
000000
302003
000000
200032
000000
020000
000000
300003
000000
003101
000000
001000
000100
,
230002
000000
000020
000000
302003
000000
200032
000000
020000
000000
300003
000000
003101
000000
001000
000100
,
230002
000000
000020
000000
302003
000000
200032
000000
020000
000000
300003
000000
003101
000000
001000
000100
,
230002
000000
020020
000000
300003
000000
200002
000000
000000
000000
331133
010010
001100
010010
001100
010010
,
201102
000000
000020
000000
302003
000000
200032
000000
020000
000000
300003
000000
003101
000000
001000
000100
,
230002
000000
000020
000000
302003
000000
200032
000000
020000
000000
300003
000000
003101
000000
001000
000100
,
130010
000000
010001
000000
100010
000000
010001
000000
100010
000000
010001
000000
100010
000000
010010
100000
,
010001
001000
100010
001000
010001
001000
100010
001000
010001
001100
100010
001100
010001
001100
100010
001100
,
020200
000000
000000
000000
000000
000000
000000
000000
000000
000000
000000
000000
000000
000000
000000
000000
000000
000000
000000
000000
000000
000000
000000
000000
000000
000000
000000
000000
000000
000000
000000
000000
000000
000000
000000
000000
000000
000000
000000
131311
000000
000000
000000
000000
000000
000000
000000
000000
000000
000000
000000
000000
000000
000000
000000
000000
000000
000000
000000
000000
000000
000000
000000
000000
;

//---------------dance-single - Copied from----------------
#NOTES:
     dance-single:
     Copied from:
     Medium:
     8:
     1.000,1.000,1.000,0.851,0.504,689.000,223.000,130.000,0.000,92.000:
0220
0000
1331
0000
,
0000
0000
0000
0000
,
0000
1001
0000
1001
0110
0000
0000
0000
,
0000
0000
0000
0000
,
1001
0101
0000
1010
0101
0000
0000
0000
,
0000
0000
0000
1001
0110
0000
0000
0000
,
1001
0110
0000
0100
1001
0000
0000
0010
,
1001
1100
0101
0110
,
1001
0000
0010
0100
0010
0100
0010
0100
1100
0000
0010
0000
0101
0000
0010
0000
,
0011
0001
1001
0100
1100
0100
0101
0001
,
0101
1000
0101
0001
0110
0001
1001
0100
,
1010
0001
0101
0010
0101
1000
0101
1000
,
0101
0010
1000
0100
0001
0010
0100
1000
0101
0000
0100
0000
1001
0000
0100
0000
,
0101
0001
0101
0100
1001
0100
0101
0001
,
0101
0100
1001
0100
0101
0001
0101
0100
,
1001
0100
0101
0001
0102
2003
0002
0010
,
3203
0000
1301
0000
1101
0001
0010
1000
,
1021
0000
1031
0010
2100
3001
2100
3001
,
2011
3000
1001
0100
0012
0103
0012
0103
,
1012
0003
1001
0100
1020
0130
1020
0130
,
0121
1000
0130
0000
0011
0000
0010
0000
0201
0000
0310
0000
0201
0000
0310
0000
,
1201
0300
1001
0100
0102
0013
2100
3010
,
0112
0003
0110
0010
2010
3100
0012
0103
,
2110
3000
1001
0001
2100
3001
2100
3001
,
2101
0010
3001
0100
1001
0100
0001
0010
0201
0000
0310
0000
2001
0000
3010
0000
,
1201
0300
1001
1000
1020
0130
1002
0103
,
1120
0030
1001
0100
1020
0031
1200
0301
,
1021
0030
1001
0010
0201
1300
0021
1030
,
0211
1000
0310
0000
1001
0000
0100
0000
0102
0000
0013
0000
1020
0000
0130
0000
,
2110
3000
1001
0100
0201
0310
2010
3100
,
1021
0030
1001
0001
2001
3100
1002
0103
,
2011
3000
1001
0010
2100
3010
0012
0103
,
0110
0100
0110
0000
1020
0000
0100
0000
,
0100
1230
0321
0001
,
0132
2103
3210
0010
,
0321
0132
0203
1000
,
2310
0001
0010
0100
0010
0100
0010
0001
3120
0000
0000
0000
0100
0000
0000
0000
,
0100
2031
3102
0100
,
2103
3120
0132
1000
,
1000
1000
1000
1000
,
1003
0000
0010
0000
1000
0000
0010
0010
2100
0000
0001
0000
0110
0000
0001
0000
,
3120
0001
1230
0010
2301
0001
0100
0010
,
3210
1000
2310
0001
3210
1000
0010
0001
,
2301
0100
3201
0001
2301
0100
0001
0100
,
3210
0001
0001
0000
1000
0000
0010
0000
2301
0000
0100
0000
0010
0000
0100
0000
,
0001
0100
3200
0010
2301
0100
0010
0001
,
3201
1000
2301
0001
3210
1000
0010
1000
,
0010
0000
1000
0000
0010
0000
1000
0000
1000
0010
0001
0010
1000
0010
0001
0010
,
1000
0010
0001
0010
1300
0000
0000
0000
0000
0000
0000
0000
1101
0000
0000
0000
,
0000
0000
0000
0000
,
0000
0000
0000
0000
,
0000
0000
1111
0000
,
0000
0000
0000
0000
,
0000
0000
0000
0000
1111
0000
0000
1001
0110
1000
0100
0010
0100
1000
0100
0010
,
0001
0010
0100
1000
0100
0010
0001
0010
0100
1000
0100
0010
0001
0010
0100
1000
,
0100
0010
0001
0010
0101
1000
0100
0010
0101
0010
0100
1000
0100
0010
0001
0010
,
0100
1000
0100
0010
0001
0010
0100
1000
0100
0010
0001
0010
0100
1000
0100
0010
,
1001
0010
0100
1000
0101
0010
1001
0010
0101
1000
0100
0010
0001
0010
0100
1000
,
0100
0010
0001
0010
0100
1000
0101
0010
1001
0010
0100
1000
0100
0010
0001
0010
,
0101
1000
0101
0010
0001
0010
0101
1000
0101
0010
0001
0010
0100
1000
0100
0010
,
1001
0010
0100
1000
0101
0010
0001
0010
0101
1000
0100
0010
0101
0010
0100
1000
,
0101
0010
0001
0010
0100
1000
0100
0000
0220
0000
0000
0000
0000
0000
0000
0000
,
0000
0000
0000
0000
,
0000
0000
0000
0000
,
0000
0000
1001
0000
,
0001
0000
0000
1000
0000
0000
0001
0000
1001
0000
0000
1000
0000
0000
1330
0000
,
0001
0000
0000
0100
0000
0000
0001
0000
1001
0000
0000
0100
0000
0000
0001
0000
,
0100
0000
0000
0010
0000
0000
0100
0000
0101
0000
0000
1000
0000
0000
0100
0000
,
0010
0000
0000
1000
0000
0000
0100
0000
0101
0000
0000
0010
0000
0000
0100
0000
,
0001
0000
0000
0100
0000
0000
1000
0000
0101
0000
0000
1000
0000
0000
0100
0000
,
0010
0000
0000
1000
0000
0000
0100
0000
1001
0000
0000
0010
0000
0000
0100
0000
,
0100
0000
0000
0001
0000
0000
0100
0000
1010
0000
0000
0100
0000
0000
0010
0000
,
0100
0000
0000
0001
0000
0000
0010
0000
1100
0000
0000
0001
0000
0000
0100
0000
,
1000
0000
0000
0001
0000
0000
0010
0000
0110
0000
0000
0001
0000
0000
0010
0000
,
1000
0000
0000
0001
0000
0000
0100
0000
0011
0000
0000
1000
0000
0000
0100
0000
,
1000
0000
0000
0100
0000
0000
0001
0000
1100
0000
0000
0001
0000
0000
0100
0000
,
0001
0000
0000
1000
0000
0000
0100
0000
0011
0000
0001
1000
0100
0001
0100
1000
,
0010
0100
1000
0100
1000
0001
1000
0010
1000
0100
1000
0010
1000
0010
0100
0001
,
0010
0001
0100
0010
1000
0100
0010
0100
0001
1000
0100
0001
0010
0100
1000
0100
,
0010
1000
0100
1000
0100
0001
1000
0010
1000
0010
0100
1000
0100
0010
1000
0100
,
0001
0100
1000
0100
1000
0010
1000
0010
1000
0010
1000
0010
0001
0010
1000
0100
,
1002
0000
0203
0000
2311
0100
3011
0000
,
2101
0000
3020
0000
1132
0010
1103
0000
,
1012
0000
0203
0000
1321
0100
1031
0000
,
2101
0000
0000
0000
3020
0000
0000
0000
1132
0000
0100
0000
1013
0000
0010
0100
,
1012
0000
0203
0000
2311
0100
3011
0000
,
2101
0000
3020
0000
1132
0010
1103
0000
,
1012
0000
0203
0000
2311
0100
3011
0000
,
2101
0000
0000
0000
3020
0000
0000
0000
1132
0000
0100
0000
1013
0100
0010
0100
,
0012
0203
0020
1301
,
2030
3200
0020
1301
,
0032
0203
0020
1301
,
2030
0000
0020
0000
3000
0000
2000
0000
0000
0000
3130
0010
0100
0010
0100
0010
,
0002
0203
0020
1301
,
2030
3200
0020
1301
,
1031
0100
1001
0010
1001
0100
1001
0011
,
0101
1010
0101
1001
0101
1001
1010
0000
,
0202
0000
0000
0000
0000
0000
0000
0000
0000
0000
0000
0000
0000
0000
0000
0000
0000
0000
0000
0000
0000
0000
0000
0000
0000
0000
0000
0000
0000
0000
0000
0000
0000
0000
0000
0000
0000
0000
0000
1313
0000
0000
0000
0000
0000
0000
0000
0000
0000
0000
0000
0000
0000
0000
0000
0000
0000
0000
0000
0000
0000
0000
0000
0000
;

//---------------dance-single - Copied from Copied f----------------
#NOTES:
     dance-single:
     Copied from Copied f:
     Easy:
     3:
     0.444,0.479,0.425,0.504,0.111,333.000,65.000,77.000,0.000,8.000:
0000
0000
1001
0000
,
0000
0000
0000
0000
,
0000
0010
0000
0100
1010
0000
0000
0000
,
0000
0000
0000
0000
,
0010
0101
0000
0000
1001
0000
0000
0000
,
0000
0000
0000
0001
1010
0000
0000
0000
,
1000
1010
0000
0000
1001
0000
0000
0010
,
0000
1000
0100
0010
,
1000
0010
0010
0010
1100
0000
0001
0000
,
0001
1000
1000
0001
,
0100
0001
0100
0001
,
1000
0100
0100
0001
,
0101
1000
0001
0000
0100
0000
1000
0000
,
0100
0100
0001
0100
,
0100
1000
0100
0001
,
0001
0000
0001
0000
0101
1000
0001
0000
,
0100
0010
1001
0010
,
1001
1001
0100
0100
,
0011
1001
0010
0010
,
1010
1001
1000
1000
,
1001
0100
0011
0000
0001
0000
0001
0000
,
1001
1001
0100
0100
,
0110
0110
0010
0010
,
0110
1001
0100
0100
,
0101
0100
1001
0000
0001
0000
0001
0000
,
1001
1001
1000
1000
,
1100
1001
1000
1000
,
1001
1001
0001
0001
,
0110
0010
1001
0000
0100
0000
1000
0000
,
0110
1001
0001
0010
,
1001
1001
0001
1000
,
0011
1001
0100
0010
,
0100
0100
0020
0000
,
0000
0230
0320
0000
,
0032
2003
3200
0000
,
0320
0032
0203
0000
,
2310
0000
3020
0000
,
0000
2030
3002
0000
,
2003
3020
0032
0000
,
0000
0000
0000
0000
,
1003
0000
2000
0000
,
0000
3020
2030
0000
,
3002
2003
3002
0000
,
0023
0230
2300
0000
,
3002
0000
0023
0000
,
0000
0230
0302
0000
,
0023
2030
3002
0000
,
0000
0000
0000
0000
,
0000
0003
0000
0000
,
0000
0000
0000
0000
,
0000
0000
0000
0000
,
0000
0000
1001
0000
,
0000
0000
0000
0000
,
0000
0000
0000
0000
1001
0000
0000
0010
0101
0000
0000
0000
0000
0000
0000
0000
,
0000
0000
0000
0000
,
0000
0101
0000
0010
1001
0000
0000
0000
,
0000
0000
0000
0000
,
1001
0000
0000
1001
0101
0000
0000
0000
,
0000
0000
0000
0101
1001
0000
0000
0000
,
0101
0101
0000
0101
0101
0000
0000
0000
,
1001
0101
0101
0101
,
0101
0110
0220
0000
,
0000
0000
0000
0000
,
0000
0000
0000
0000
,
0000
0000
0000
0000
,
0001
0000
0000
1000
0000
0000
0001
0000
0001
0000
0000
1000
0000
0000
1330
0000
,
0001
0000
0000
0100
0000
0000
0001
0000
1000
0000
0000
0001
0000
0000
0010
0000
,
0100
0000
0000
0010
0000
0000
0100
0000
0010
0000
0000
0001
0000
0000
0100
0000
,
0010
0000
0000
1000
0000
0000
0100
0000
0100
0000
0000
0001
0000
0000
0100
0000
,
0001
0000
0000
0100
0000
0000
1000
0000
0001
0000
0000
0100
0000
0000
1000
0000
,
0010
0000
0000
1000
0000
0000
0100
0000
0100
0000
0000
0001
0000
0000
0100
0000
,
0010
0000
0000
0001
0000
0000
0100
0000
0001
0000
0000
1000
0000
0000
0100
0000
,
0010
0000
0000
0001
0000
0000
0010
0000
1000
0000
0000
0001
0000
0000
0100
0000
,
1000
0000
0000
0001
0000
0000
0010
0000
0010
0000
0000
1000
0000
0000
0001
0000
,
1000
0000
0000
0001
0000
0000
0100
0000
0010
0000
0000
0001
0000
0000
0100
0000
,
1000
0000
0000
0100
0000
0000
0001
0000
0010
0000
0000
1000
0000
0000
0100
0000
,
0001
0000
0000
1000
0000
0000
0100
0000
0001
0000
0000
1000
0000
0000
0100
0000
,
0010
0000
0000
0100
0000
0000
1000
0000
0001
0000
0000
1000
0000
0000
0100
0000
,
0010
0000
0000
0010
0000
0000
0010
0000
0100
0000
0000
0001
0000
0000
0100
0000
,
0010
0000
0000
1000
0000
0000
1000
0000
0001
0000
0000
1000
0000
0000
0100
0000
,
0001
0000
0000
0100
0000
0000
1000
0000
0010
0000
0000
0100
0000
0000
0010
0000
,
1002
0203
2300
3000
,
2000
3020
0032
0003
,
0002
0203
0320
0030
,
2000
3020
0032
0003
,
0002
0203
2300
3000
,
2000
3020
0032
0003
,
0002
0203
2300
3000
,
2000
3020
0032
0003
,
0002
0203
0320
0000
,
2030
3200
0320
0000
,
0032
0203
0320
0000
,
2030
3020
0000
2000
0000
3030
0000
0000
,
0002
0203
0320
0000
,
2030
3200
0320
1000
,
1030
0000
0001
0010
1000
0100
0001
0010
,
0100
1000
0100
0001
0001
0010
0010
0100
,
0200
0000
0000
0000
0000
0000
0000
0000
0000
0000
0000
0000
0000
0000
0000
0000
0000
0000
0000
0000
0000
0000
0000
0000
0000
0000
0000
0000
0000
0000
0000
0000
0000
0000
0000
0000
0000
0000
0000
1310
0000
0000
0000
0000
0000
0000
0000
0000
0000
0000
0000
0000
0000
0000
0000
0000
0000
0000
0000
0000
0000
0000
0000
0000
;

//---------------dance-solo - Copied from Copied f----------------
#NOTES:
     dance-solo:
     Copied from Copied f:
     Medium:
     8:
     1.000,1.000,1.000,0.851,0.501,688.000,225.000,130.000,0.000,94.000:
200002
000000
310013
000000
,
000000
000000
000000
000000
,
000000
100100
000000
000011
010010
000000
000000
000000
,
000000
000000
000000
000000
,
000110
010100
000000
001001
000110
000000
000000
000000
,
000000
000000
000000
001001
000110
000000
000000
000000
,
001100
010010
000000
001100
100010
000000
000000
001000
,
000101
100001
000110
001100
,
000101
000000
000010
010000
000100
010000
000010
001000
000101
000000
001000
000000
000110
000000
000001
000000
,
001100
000010
100100
010000
000011
001000
000110
001000
,
010100
000001
010100
000010
001001
000100
100001
000010
,
100001
000100
000101
001000
000101
000010
001100
000001
,
010100
000001
001000
000000
010000
000010
000100
001000
010010
000000
010000
000000
100100
000000
000010
000000
,
000110
000100
000110
000001
100100
000010
000101
000100
,
000101
000010
100100
000001
010100
000010
010100
000001
,
100100
000001
010100
000010
010200
000302
200000
010000
,
300023
000000
010130
000000
010101
000010
001000
000001
,
002101
000000
013100
000001
000120
010030
000120
010030
,
001120
000030
100100
000001
001200
010300
001200
010300
,
001201
000300
100001
000010
002100
003010
002100
003010
,
102100
000010
003001
000000
100100
000000
001000
000000
000120
000000
100030
000000
000120
000000
100030
000000
,
001120
000030
001100
000001
010200
001300
210000
301000
,
001201
000300
000110
000001
200010
310000
001200
010300
,
210001
300000
001100
000001
210000
300001
210000
300001
,
210100
000010
300100
000001
010100
000010
000100
001000
020001
000000
031000
000000
200010
000000
301000
000000
,
020101
030000
000101
000010
100200
001300
010020
000130
,
110200
000300
000011
000100
100002
000103
100200
001300
,
100120
000030
000101
001000
000102
100003
002100
103000
,
010102
000010
001003
000000
100100
000000
000001
000000
010020
000000
000130
000000
100200
000000
000310
000000
,
011002
000003
100100
000001
000120
001030
000201
010300
,
002101
003000
100100
000001
200100
300001
100200
000310
,
012100
003000
100100
001000
010002
001003
001020
100030
,
001100
000001
010010
000000
102000
000000
000001
000000
,
000001
103020
010032
010000
,
100023
010230
020301
000001
,
230100
300201
010320
000100
,
201030
010000
000001
000000
000010
001000
000100
010000
300201
000000
000000
000000
000001
000000
000000
000000
,
000001
021300
130200
010000
,
010302
100023
010230
100000
,
100000
100000
100000
100000
,
100300
000000
000001
000000
010000
000000
000010
100000
000012
000000
001000
000000
010010
000000
000100
000000
,
012003
000010
003021
001000
200130
001000
000100
000001
,
300210
010000
001302
100000
021003
000001
000010
001000
,
230010
000001
320010
000001
030102
010000
000010
100000
,
000123
010000
000100
000000
100000
000000
001000
000000
200130
000000
010000
000000
000001
000000
001000
000000
,
000010
000100
300012
001000
000123
100000
001000
000001
,
020130
100000
030102
000010
021003
000001
001000
000010
,
001000
000000
100000
000000
001000
000000
000001
000000
000010
001000
000100
001000
000010
001000
000100
001000
,
000010
001000
000100
001000
030010
000000
000000
000000
000000
000000
000000
000000
011110
000000
000000
000000
,
000000
000000
000000
000000
,
000000
000000
000000
000000
,
000000
000000
011110
000000
,
000000
000000
000000
000000
,
000000
000000
000000
000000
011110
000000
000000
010010
001100
100000
010000
001000
000100
010000
001000
000100
,
000010
001000
000100
000010
000001
010000
001000
000100
000010
100000
010000
001000
000100
010000
001000
000100
,
000010
000001
000010
000100
001001
000100
001000
010000
100001
010000
001000
000100
001000
000100
000010
000001
,
000010
000100
001000
000100
001000
010000
100000
010000
001000
000100
001000
000100
000010
000001
000010
000100
,
001001
000100
001000
010000
100001
010000
001001
000100
001001
000100
000010
000001
000010
000100
001000
000100
,
001000
010000
100000
010000
001000
000100
101000
000100
100010
000001
000010
000100
001000
000100
001000
010000
,
100001
010000
001001
000100
010001
001000
000100
000010
001000
000100
000010
000001
000010
000100
001000
010000
,
000101
001000
010000
100000
000101
001000
010000
100010
000100
001000
010000
000001
100010
000100
001000
010000
,
000101
001000
010000
100000
010000
000100
001000
000000
020020
000000
000000
000000
000000
000000
000000
000000
,
000000
000000
000000
000000
,
000000
000000
000000
000000
,
000000
000000
101101
000000
,
000100
000000
000000
001000
000000
000000
000001
000000
100100
000000
000000
000100
000000
000000
031030
000000
,
100000
000000
000000
010000
000000
000000
010000
000000
000110
000000
000000
001000
000000
000000
010000
000000
,
000001
000000
000000
000100
000000
000000
010000
000000
000011
000000
000000
000100
000000
000000
010000
000000
,
000100
000000
000000
000010
000000
000000
000100
000000
000011
000000
000000
001000
000000
000000
000100
000000
,
010000
000000
000000
100000
000000
000000
000001
000000
010001
000000
000000
000001
000000
000000
000010
000000
,
000001
000000
000000
010000
000000
000000
010000
000000
001100
000000
000000
000100
000000
000000
100000
000000
,
000100
000000
000000
001000
000000
000000
000010
000000
100001
000000
000000
000010
000000
000000
000100
000000
,
001000
000000
000000
000010
000000
000000
001000
000000
010001
000000
000000
000010
000000
000000
000100
000000
,
000100
000000
000000
010000
000000
000000
000100
000000
001001
000000
000000
000100
000000
000000
000010
000000
,
000010
000000
000000
000010
000000
000000
010000
000000
100100
000000
000000
000010
000000
000000
000010
000000
,
100000
000000
000000
000100
000000
000000
000100
000000
100010
000000
000000
000100
000000
000000
001000
000000
,
000001
000000
000000
000001
000000
000000
001000
000000
010100
000000
001000
000001
010000
000100
000010
000001
,
100000
000100
001000
010000
000010
001000
000001
000010
000100
000001
100000
010000
000001
000100
000001
010000
,
001000
000001
010000
000100
100000
001000
000001
010000
001000
100000
000001
000010
000100
010000
001000
000100
,
100000
010000
000010
000100
000010
010000
000010
000001
100000
000010
000100
010000
000001
000010
001000
010000
,
001000
000100
100000
010000
100000
000001
001000
000010
001000
000100
001000
010000
100000
010000
001000
000100
,
010002
000000
000023
000000
101230
000001
101300
000000
,
210100
000000
302000
000000
013102
000010
010103
000000
,
101200
000000
020300
000000
132001
000100
103001
000000
,
210100
000000
000000
000000
302000
000000
000000
000000
013102
000000
000010
000000
010103
001000
000010
001000
,
100201
000000
020300
000000
132001
000100
103001
000000
,
210100
000000
302000
000000
013102
000010
010103
000000
,
101200
000000
020300
000000
132001
000100
103001
000000
,
010102
000000
000000
000000
000023
000000
000000
000000
101230
000000
000001
000000
101300
000010
000001
000010
,
001200
000320
020000
000131
,
030002
000023
002000
100130
,
003020
000230
002000
100301
,
003002
000000
002000
000003
000000
000000
000020
000000
000000
000000
003130
001000
000100
001000
000100
001000
,
000200
000302
002003
000101
,
003002
000203
002300
000101
,
103001
010000
100001
001000
100001
000010
100001
001100
,
010010
100001
010010
001100
010010
100001
001100
000000
,
020020
000000
000000
000000
000000
000000
000000
000000
000000
000000
000000
000000
000000
000000
000000
000000
000000
000000
000000
000000
000000
000000
000000
000000
000000
000000
000000
000000
000000
000000
000000
000000
000000
000000
000000
000000
000000
000000
000000
031130
000000
000000
000000
000000
000000
000000
000000
000000
000000
000000
000000
000000
000000
000000
000000
000000
000000
000000
000000
000000
000000
000000
000000
000000
;

//---------------dance-solo - Copied from Copied f----------------
#NOTES:
     dance-solo:
     Copied from Copied f:
     Easy:
     3:
     0.443,0.511,0.425,0.504,0.111,332.000,65.000,77.000,0.000,7.000:
000000
000000
000101
000000
,
000000
000000
000000
000000
,
000000
000010
000000
000100
001100
000000
000000
000000
,
000000
000000
000000
000000
,
100000
011000
000000
000000
010010
000000
000000
000000
,
000000
000000
000000
100000
001001
000000
000000
000000
,
010000
000101
000000
000000
001100
000000
000000
001000
,
000000
000001
000100
010000
,
000010
001000
000001
001000
010010
000000
000010
000000
,
010000
000001
000100
100000
,
000100
000010
000100
000010
,
100000
000001
010000
000100
,
100001
001000
000100
000000
000100
000000
001000
000000
,
000100
010000
000010
001000
,
010000
001000
000100
000001
,
010000
000000
100000
000000
001100
000001
100000
000000
,
000010
010000
001001
100000
,
010001
001100
000001
000100
,
010010
100001
000010
010000
,
100001
010010
000100
001000
,
010010
000100
010010
000000
000100
000000
100000
000000
,
001001
010001
100000
000001
,
000101
100010
000010
001000
,
010100
100001
000001
010000
,
001010
000100
010010
000000
000001
000000
001000
000000
,
010010
000110
010000
100000
,
001001
100100
100000
000001
,
001010
010001
000100
010000
,
001010
000100
010001
000000
000010
000000
010000
000000
,
000110
100001
001000
000011
,
010100
001001
010000
000100
,
110000
000110
100000
010000
,
000100
001000
000002
000000
,
000000
200003
300200
000000
,
002300
023000
030200
000000
,
200300
302000
003200
000000
,
200310
000000
300002
000000
,
000000
200003
302000
000000
,
023000
030002
200003
000000
,
000000
000000
000000
000000
,
000000
000000
300020
000000
,
000000
200030
300020
000000
,
020030
030200
200300
000000
,
300002
200003
300200
000000
,
002300
000000
003002
000000
,
000000
200003
302000
000000
,
003200
020300
032000
000000
,
000000
000000
000000
000000
,
000000
003000
000000
000000
,
000000
000000
000000
000000
,
000000
000000
000000
000000
,
000000
000000
000011
000000
,
000000
000000
000000
000000
,
000000
000000
000000
000000
010100
000000
000000
000010
101000
000000
000000
000000
000000
000000
000000
000000
,
000000
000000
000000
000000
,
000000
000110
000000
010000
000101
000000
000000
000000
,
000000
000000
000000
000000
,
011000
000000
000000
100100
010001
000000
000000
000000
,
000000
000000
000000
100100
010001
000000
000000
000000
,
100100
010001
000000
001001
100010
000000
000000
000000
,
010100
001010
000101
001010
,
010100
101000
000202
000000
,
000000
000000
000000
000000
,
000000
000000
000000
000000
,
000000
000000
000000
000000
,
001000
000000
000000
100000
000000
000000
010000
000000
001000
000000
000000
000010
000000
000000
010303
000000
,
000010
000000
000000
000010
000000
000000
000001
000000
010000
000000
000000
000010
000000
000000
010000
000000
,
000001
000000
000000
001000
000000
000000
000010
000000
010000
000000
000000
000001
000000
000000
010000
000000
,
000010
000000
000000
000001
000000
000000
100000
000000
000010
000000
000000
001000
000000
000000
000001
000000
,
010000
000000
000000
000100
000000
000000
000001
000000
001000
000000
000000
010000
000000
000000
100000
000000
,
000010
000000
000000
000100
000000
000000
010000
000000
000100
000000
000000
001000
000000
000000
000010
000000
,
010000
000000
000000
000001
000000
000000
000100
000000
001000
000000
000000
100000
000000
000000
000001
000000
,
001000
000000
000000
000100
000000
000000
000010
000000
010000
000000
000000
000100
000000
000000
010000
000000
,
000010
000000
000000
000100
000000
000000
010000
000000
000001
000000
000000
010000
000000
000000
000010
000000
,
010000
000000
000000
001000
000000
000000
100000
000000
000001
000000
000000
000100
000000
000000
010000
000000
,
000100
000000
000000
010000
000000
000000
000100
000000
100000
000000
000000
000100
000000
000000
010000
000000
,
000001
000000
000000
001000
000000
000000
000010
000000
010000
000000
000000
001000
000000
000000
000010
000000
,
100000
000000
000000
000010
000000
000000
001000
000000
000001
000000
000000
010000
000000
000000
001000
000000
,
000010
000000
000000
100000
000000
000000
001000
000000
000100
000000
000000
000001
000000
000000
010000
000000
,
000100
000000
000000
010000
000000
000000
000010
000000
100000
000000
000000
000001
000000
000000
010000
000000
,
001000
000000
000000
100000
000000
000000
000001
000000
010000
000000
000000
001000
000000
000000
000010
000000
,
002100
003200
000320
000030
,
000200
020300
032000
003000
,
002000
000000
003020
000000
200030
000000
000000
300000
,
000200
020300
032000
003000
,
000002
020003
030200
000300
,
020000
030200
002300
003000
,
200000
000000
300002
000000
020003
000000
000000
030000
,
000200
020300
030002
000003
,
200000
300200
002300
000000
,
003020
200030
300200
000000
,
020300
030020
200030
000000
,
320000
032000
000000
000020
000000
003030
000000
000000
,
000002
200003
302000
000000
,
003020
020030
032000
000001
,
103000
000000
000010
000100
100000
001000
000001
000010
,
001000
010000
000010
000100
001000
010000
000001
001000
,
000200
000000
000000
000000
000000
000000
000000
000000
000000
000000
000000
000000
000000
000000
000000
000000
000000
000000
000000
000000
000000
000000
000000
000000
000000
000000
000000
000000
000000
000000
000000
000000
000000
000000
000000
000000
000000
000000
000000
000310
000000
000000
000000
000000
000000
000000
000000
000000
000000
000000
000000
000000
000000
000000
000000
000000
000000
000000
000000
000000
000000
000000
000000
000000
;

//---------------dance-single - Copied from----------------
#NOTES:
     dance-single:
     Copied from:
     Challenge:
     24:
     1.000,1.000,1.000,1.000,1.000,1151.000,344.000,233.000,0.000,233.000:
0220
0000
0000
0000
0000
0000
0000
1331
0110
1000
0100
0010
0001
0010
0100
1000
,
0100
0010
0001
0010
0100
1000
0100
0010
0001
0010
0100
1000
0100
0010
0001
0010
,
0100
1000
0101
0010
0001
0010
0101
1000
0111
1000
0100
0010
0001
0010
0100
1000
,
0100
0010
0001
0010
0100
1000
0100
0010
0001
0010
0100
1000
0100
0010
0001
0010
,
0101
1000
0111
1000
0001
1000
0111
1000
0101
0010
0100
1000
0100
0010
0001
0010
,
0100
1000
0100
0010
0001
0010
0101
1000
0111
1000
0100
0010
0001
0010
0100
1000
,
0101
1000
0111
1000
0001
1000
0111
1000
0101
0010
0001
0010
0100
1000
0101
0010
,
0101
0010
0100
1000
0101
0010
0001
0010
0101
1000
0100
0010
0101
0010
0101
1000
,
0101
0000
1010
0101
1010
0101
1010
0100
1010
0001
0010
0100
1010
0001
0010
0001
,
1110
0001
0010
0100
1010
0001
0010
0001
1110
0001
0010
0100
1010
0001
0010
0001
,
1110
0001
0010
0100
1010
0001
0010
0001
1110
0001
0010
0100
1010
0001
0010
0001
,
1110
0001
0010
0100
1010
0001
0010
0001
1010
0001
0010
0001
1110
0001
0010
0101
,
1010
0101
1010
0100
0011
1000
0101
0010
0101
1000
0100
0010
1001
0010
0100
1000
,
0101
0010
0001
0010
0101
1000
0100
0010
1001
0010
0100
1000
0101
0010
0001
0010
,
0101
1000
0100
0010
1001
0010
0100
1000
0101
0010
0001
0010
0101
1000
0100
0010
,
1001
0010
0100
1000
0101
0010
0001
0010
0102
0010
2003
0100
0000
0002
0010
0000
,
3203
0000
0000
0000
1301
0000
0000
0000
1111
0000
0001
0100
0010
0001
1000
0100
,
1021
0000
0000
0000
1031
0000
0010
0000
2100
0001
3010
0000
2100
0001
3010
0000
,
2111
0000
3000
0000
1001
0000
0100
0000
0012
1000
0103
0000
0012
1000
0103
0000
,
1112
0000
0003
0000
1001
0000
0100
0000
1020
0100
0031
0000
1020
0100
0031
0000
,
1121
1000
0130
0000
1011
0000
0010
0000
0201
0010
1300
0000
0201
0010
1300
0000
,
1211
0000
0300
0000
1001
0000
0100
0000
2102
0010
3103
0000
2102
0010
3103
0000
,
2112
0000
3003
0000
1111
0000
0010
0000
2012
0100
3013
0000
2012
0100
3013
0000
,
2112
0000
3003
0000
1001
0000
0001
0000
2100
0001
3100
0000
2100
0001
3100
0000
,
2111
0001
3001
0010
1001
0100
0001
0010
0201
0010
1300
0000
2001
0010
3100
0000
,
1211
0000
0300
0000
1001
0000
1000
0000
1020
0100
0031
0000
1002
0100
0013
0000
,
1121
0000
0030
0000
1001
0000
0100
0000
1020
0100
1030
0000
1200
0001
1300
0000
,
1121
0000
0030
0000
1001
0000
0010
0000
0201
0010
0301
0000
0021
1000
0031
0000
,
1211
1000
0310
0000
1001
0000
0100
0000
2102
0010
3103
0000
1220
0001
1330
0000
,
2112
0000
3003
0000
1001
0000
0100
0000
0221
1000
0331
0000
2012
0100
3013
0000
,
1221
0000
0330
0000
1001
0000
0001
0000
2201
0010
3301
0000
1022
0100
1033
0000
,
2211
0000
3300
0000
1001
0010
1000
0000
1000
0100
1000
0100
0001
0010
0001
0010
,
1000
0100
1000
0001
0010
1000
0001
0100
2122
0000
0000
0000
0100
0000
0000
0000
,
0100
0000
0000
0030
0210
0000
0000
0003
0021
0000
0000
0000
0001
0000
0000
0300
,
0102
3000
0000
0000
2100
0000
0000
0030
0210
0000
0000
0000
0010
0000
0000
0003
,
0021
0000
0000
0300
0102
0000
0000
0000
0200
0000
0000
3000
1000
0000
0000
0030
,
2010
0000
0000
0000
0010
0000
0000
0300
0120
0000
0000
0000
0100
0000
0000
0000
,
0100
0000
0000
0003
0201
0000
0000
0300
0102
0000
0000
0000
3100
0000
0000
0000
,
2130
0123
3102
1000
,
1000
0000
1000
0000
1000
0000
1000
0003
,
1030
0100
0010
0001
1000
0100
0010
0001
2100
0001
0010
0001
0110
0001
0010
0001
,
3100
0010
0001
0010
1200
0001
1000
0010
2301
0010
0001
0010
0100
0001
0010
0001
,
3210
0001
0010
0001
2310
0001
0010
0001
3210
0001
0010
0001
0010
1000
0001
0010
,
2301
0010
0100
0010
3201
0010
0001
0010
2301
0010
0100
0010
0100
0001
0100
0001
,
3210
0001
0010
0001
1000
0001
0010
0001
2310
0100
0010
0100
0010
0001
0100
0010
,
0001
0010
0100
0001
3200
0010
1000
0010
2301
0010
0100
0001
0010
0100
0001
0010
,
3201
0010
1000
0010
2301
0010
0100
0001
3210
0001
0010
0001
0010
0001
0010
0001
,
0010
0001
0010
0001
0010
0001
0010
0001
1010
0001
1010
0001
1010
0001
1010
0001
,
1010
0001
1010
0001
1310
0000
0000
0000
0000
0000
0000
0000
1101
0000
0010
0000
,
0001
0000
0000
0000
0010
0000
0000
0000
0100
0000
0000
0000
1000
0000
0000
0000
0100
0000
0000
0000
0010
0000
0000
0000
0001
0010
0100
1000
0100
0010
0001
0010
,
0100
1000
0100
0010
0001
0010
0100
1000
0100
0010
0001
0010
0100
1000
0100
0010
0001
0010
0100
1000
0100
0010
0001
0010
0100
1000
0100
0010
0001
0010
0100
1000
,
0100
0010
0001
0010
0100
1000
0100
0010
0001
0010
0100
1000
0100
0010
0001
0010
1100
0010
0001
0010
0100
0001
1000
0100
0010
0001
0010
0100
1000
0100
0010
0001
,
0010
0100
1000
0100
0010
0001
0010
0100
1000
0100
0010
0001
0010
0100
1000
0100
0010
0001
0010
0100
1000
0100
0010
0001
0010
0100
1000
0100
0010
0001
0010
0100
,
1000
0100
0010
0001
0010
0100
1000
0100
0011
0100
1000
0100
0010
0001
1010
0100
0011
0000
1000
0000
0100
0000
0010
0000
0100
0000
1000
0000
0100
0000
0010
0000
,
0001
0010
0100
1000
0100
0010
0001
0010
0100
1000
0100
0010
0001
0010
0100
1000
,
0100
0010
0001
0010
0101
1000
0100
0010
0101
0010
0100
1000
0100
0010
0001
0010
,
0100
1000
0100
0010
0001
0010
0100
1000
0100
0010
0001
0010
0100
1000
0100
0010
,
1001
0010
0100
1000
0101
0010
1001
0010
0101
1000
0100
0010
0001
0010
0100
1000
,
0100
0010
0001
0010
0100
1000
0101
0010
1001
0010
0100
1000
0100
0010
0001
0010
,
0101
1000
0101
0010
0001
0010
0101
1000
0101
0010
0001
0010
0100
1000
0100
0010
,
1001
0010
0100
1000
0101
0010
0001
0010
0101
1000
0100
0010
0101
0010
0100
1000
,
0101
0010
0001
0010
0100
1000
0100
0010
1001
0000
0110
0000
1001
0000
0110
0000
,
1001
0110
1001
0110
1001
0110
1001
0110
,
1001
0120
1001
0100
1001
0100
1001
0100
,
1001
0100
1001
0000
1101
0000
0000
0000
,
1002
0000
0000
1203
0000
0000
2301
0000
3102
0000
0000
1003
0000
0000
0130
0000
,
2001
0000
0000
3120
0000
0000
2031
0000
3021
0000
0000
0130
0000
0000
0001
0000
,
2100
0000
0000
3012
0000
0000
2103
0000
3102
0000
0000
1003
0000
0000
0100
0000
,
0210
0000
0000
1302
0000
0000
2103
0000
3102
0000
0000
0013
0000
0000
0100
0000
,
2001
0000
0000
3102
0000
0000
1023
0000
2131
0000
0000
3100
0000
0000
0100
0000
,
0012
0000
0000
1023
0000
0000
2130
0000
3201
0000
0000
0310
0000
0000
0100
0000
,
2100
0000
0000
3021
0000
0000
0132
0000
1023
0000
0000
0130
0000
0000
0010
0000
,
2100
0000
0000
3201
0000
0000
0312
0000
1203
0000
0000
0301
0000
0000
0100
0000
,
1020
0000
0000
0231
0000
0000
2310
0000
3120
0000
0000
0031
0000
0000
0010
0000
,
1200
0000
0000
2301
0000
0000
3120
0000
0231
0000
0000
1300
0000
0000
0100
0000
,
1002
0000
0000
0123
0000
0000
0231
0000
1320
0000
0000
0031
0000
0000
0100
0000
,
0002
0000
0000
1023
0000
0000
2130
0000
3201
0000
0001
1300
0100
0001
0100
1000
,
0012
0100
1000
0123
1000
0001
1230
0010
1302
0100
1003
0010
1000
0010
0100
0001
,
2010
0001
0100
3012
1000
0100
2013
0100
3021
1000
0130
0001
0010
0100
1000
0100
,
0012
1000
0100
1023
0100
0001
1230
0010
1302
0010
0103
1000
0100
0010
1000
0100
,
0011
0100
1010
0100
1001
0010
1100
0010
1001
0110
1001
0110
1001
0110
1001
0110
,
1012
0000
0020
0000
0203
0000
2030
0000
0311
0000
3100
0000
0011
1000
0101
0010
,
2101
0000
0200
3000
0020
0000
0302
0000
1130
0000
0013
0000
1100
0001
1010
0100
,
1012
0000
0020
0000
0203
0000
2030
0000
0311
0000
3100
0000
0011
1000
0101
0010
,
2101
0000
0200
3000
0020
0000
0302
0000
1130
0000
0013
0000
1010
0101
1010
1000
,
0112
0000
0020
0000
0203
0000
2030
0000
0311
0000
3100
0000
0011
1000
0101
0010
,
2101
0000
0200
3000
0020
0000
0302
0000
1130
0000
0013
0000
1100
0001
1010
0100
,
1012
0000
0020
0000
0203
0000
2030
0000
0311
0000
3100
0000
0011
1000
0101
0010
,
2101
0000
0200
3000
0020
0000
0302
0000
1130
0000
0103
0010
1100
0010
1010
0010
,
2002
0000
0020
0000
3203
0000
2032
0000
0020
0000
3003
0000
1301
0000
1000
0100
,
2032
0000
0020
0000
3203
0000
2032
0000
0020
0000
3003
0000
1301
0000
1000
0100
,
2032
0000
0020
0000
3203
0000
2032
0000
0020
0000
3003
0000
1301
0000
1000
0100
,
2032
0000
0020
0000
3003
0000
2002
0000
0000
0000
3133
1000
0100
1000
0100
1000
,
2102
0000
0020
0000
3203
0000
2032
0000
0020
0000
3003
0000
1301
0000
1000
0100
,
2032
0000
0020
0000
3203
0000
2032
0000
0020
0000
3003
0000
1301
0000
1000
0100
,
1031
0000
0101
0000
1001
0000
0101
0000
1001
0000
0101
0000
1001
0000
0101
1000
,
0101
0010
1001
0010
0101
0010
1001
0010
0101
0110
1001
0110
0101
0110
1001
0110
,
0202
0000
0000
0000
0000
0000
0000
0000
0000
0000
0000
0000
0000
0000
0000
0000
0000
0000
0000
0000
0000
0000
0000
0000
0000
0000
0000
0000
0000
0000
0000
0000
0000
0000
0000
0000
0000
0000
0000
1313
0000
0000
0000
0000
0000
0000
0000
0000
0000
0000
0000
0000
0000
0000
0000
0000
0000
0000
0000
0000
0000
0000
0000
0000
;
